(navigation image)
Home Audio Books & Poetry | Community Audio | Computers & Technology | Grateful Dead | Live Music Archive | Music, Arts & Culture | Netlabels | News & Public Affairs | Non-English Audio | Podcasts | Radio Programs | Spirituality & Religion | The Shady Trees
Search: Advanced Search
Anonymous User (login or join us)
Upload

Listen to audio

item image
Run time: 1:14:17

Stream (help[help])

VBR M3U
MP3 via M3U

Play / Download (help[help])

VBR ZIP

Ogg Vorbis

Lossless zip


All Files: HTTPS

Resources

Bookmark

DawesDawes Live at High Sierra Music Festival on 2011-07-02 (July 2, 2011)

something has gone horribly wrong 8-p
Prefer flash? · Embed · Questions/Feedback?


Collection: Dawes
Band/Artist: Dawes
Date: July 2, 2011 (check for other copies)
Venue: High Sierra Music Festival
Location: Quincy CA

Source: http://fatmusicradio.com/wp/
Lineage: lossy webstream > FLAC
Taped by: morst
Transferred by: morst
Keywords: Lossy; NOT LOSSLESS; Dawes; Delta Spirit; Middle Brother; HSMF; webstream; webcast; broadcast; SBD; Radio


Description

01. intro
02. If I Wanted Someone
03. My Girl To Me
04. Coming Back To A Man
05. Give Me Love
06. How Far We've Come
07. That Western Skyline
08. The Way You Laugh
09. I'll Take A Melody (Allen Toussaint)
10. Fire Away
11. Time Spent In Los Angeles
12. When You Call My Name
13. Million Dollar Bill (with Matt Vasquez from Delta Spirit)
14. When My Time Comes
15. Peace In The Valley
16. outtro

Notes

WEBSTREAM CAPTURE from LOSSY SOURCE!

length expanded size cdr WAVE problems fmt ratio filename
0:07.692 2215268 B cxx -- ---xx flac 0.5661 Dawes2011-07-02-webstream-t01.flac
4:34.728 79121852 B cxx -- ---xx flac 0.6504 Dawes2011-07-02-webstream-t02.flac
5:27.459 94308098 B cxx -- ---xx flac 0.6876 Dawes2011-07-02-webstream-t03.flac
3:53.398 67218692 B cxx -- ---xx flac 0.6702 Dawes2011-07-02-webstream-t04.flac
3:37.124 62531690 B cxx -- ---xx flac 0.6376 Dawes2011-07-02-webstream-t05.flac
3:13.798 55813844 B cxx -- ---xx flac 0.6641 Dawes2011-07-02-webstream-t06.flac
6:00.971 103959620 B cxx -- ---xx flac 0.6464 Dawes2011-07-02-webstream-t07.flac
4:06.836 71088920 B cxx -- ---xx flac 0.6686 Dawes2011-07-02-webstream-t08.flac
7:23.072 127604756 B cxx -- ---xx flac 0.6395 Dawes2011-07-02-webstream-t09.flac
6:40.165 115247594 B cxx -- ---xx flac 0.6482 Dawes2011-07-02-webstream-t10.flac
4:20.359 74983514 B cxx -- ---xx flac 0.6726 Dawes2011-07-02-webstream-t11.flac
4:34.482 79050950 B cxx -- ---xx flac 0.6636 Dawes2011-07-02-webstream-t12.flac
4:08.198 71481170 B cxx -- ---xx flac 0.6215 Dawes2011-07-02-webstream-t13.flac
5:24.889 93568040 B cxx -- ---xx flac 0.6399 Dawes2011-07-02-webstream-t14.flac
9:28.366 163689536 B cxx -- ---xx flac 0.6522 Dawes2011-07-02-webstream-t15.flac
1:15.356 21702542 B cxx -- ---xx flac 0.5784 Dawes2011-07-02-webstream-t16.flac
74:16.894 1283586086 B 0.6522 (16 files)

http://fatmusicradio.com/wp/

Individual Files

Audio Files 24bit Flac VBR MP3 Ogg Vorbis
intro 1.2 MB
150.4 KB
78.8 KB
If I Wanted Someone 49.1 MB
6.7 MB
3.1 MB
My Girl To Me 61.8 MB
7.6 MB
3.7 MB
Coming Back To A Man 43.0 MB
5.7 MB
2.6 MB
Give Me Love 38.0 MB
5.2 MB
2.4 MB
How Far We've Come 35.4 MB
4.5 MB
2.2 MB
That Western Skyline 64.1 MB
8.4 MB
4.0 MB
The Way You Laugh 45.3 MB
5.7 MB
2.8 MB
I'll Take A Melody 77.8 MB
10.4 MB
4.9 MB
Fire Away 71.2 MB
9.5 MB
4.4 MB
Time Spent In Los Angeles 48.1 MB
6.1 MB
2.9 MB
When You Call My Name 50.0 MB
6.6 MB
3.0 MB
Million Dollar Bill 42.4 MB
5.8 MB
2.7 MB
When My Time Comes 57.1 MB
8.0 MB
3.6 MB
Peace In The Valley 101.8 MB
14.0 MB
6.3 MB
outtro 12.0 MB
1.6 MB
778.1 KB
Information FormatSize
Dawes2011-07-02-webstream.ffp Flac FingerPrint 1.1 KB
Dawes2011-07-02.webstream.ffp Flac FingerPrint 1.1 KB
Dawes2011-07-02.webstream.md5 Checksums 1.1 KB
Dawes2011-07-02-webstream.md5 Checksums 1.1 KB
Dawes2011-07-02.webstream_files.xml Metadata [file]
Dawes2011-07-02.webstream_meta.xml Metadata 5.7 KB
Dawes2011-07-02.webstream_reviews.xml Metadata 592.0 B
Other Files Text
Dawes2011-07-02-webstream-info.txt 4.3 KB

Write a review
Downloaded 567 times
Reviews
Average Rating:

Reviewer: morst - - July 4, 2011
Subject: track nine.
Taylor tears off a brilliantly-played solo on the Toussaint cover. Wow.

Hope someone recorded this at full resolution, but here's the lossy version until then.